Seven gun men in the old west gradually come together to help a poor village against savage thieves.
.
NOTES:
This is no where near HD-TS but people still seem to tag it wrong not sure why. So took the Russian video and synced CPG audio (thanks to both). Its very watchable and a great movie too if you like westerns.

Video Source – Russian EZ (Thank You)
Audio Source – CPG (Thank You)

Format : AVI
Format/Info : Audio Video Interleave
Format profile : OpenDML
File size : 2.00 GiB
Duration : 2 h 8 min
Overall bit rate : 2 239 kb/s
Writing library : VirtualDub build 30091/release

Video
ID : 0
Format : MPEG-4 Visual
Format profile : Advanced [email protected]
Format settings, BVOP : 2
Format settings, QPel : No
Format settings, GMC : No warppoints
Format settings, Matrix : Default (H.263)
Muxing mode : Packed bitstream
Codec ID : XVID
Codec ID/Hint : XviD
Duration : 2 h 8 min
Bit rate : 2 099 kb/s
Width : 720 pixels
Height : 304 pixels
Display aspect ratio : 2.35:1
Frame rate : 29.970 (29970/1000) FPS
Color space : YUV
Chroma subsampling : 4:2:0
Bit depth : 8 bits
Scan type : Progressive
Compression mode : Lossy
Bits/(Pixel*Frame) : 0.320
Stream size : 1.88 GiB (94%)
Writing library : XviD 67

Audio
ID : 1
Format : MPEG Audio
Format version : Version 1
Format profile : Layer 3
Mode : Joint stereo
Mode extension : MS Stereo
Codec ID : 55
Codec ID/Hint : MP3
Duration : 2 h 8 min
Bit rate mode : Constant
Bit rate : 128 kb/s
Channel(s) : 2 channels
Sampling rate : 44.1 kHz
Compression mode : Lossy
Stream size : 117 MiB (6%)
Alignment : Split accross interleaves
Interleave, duration : 72 ms (2.16 video frames)
Interleave, preload duratio : 504 ms
Writing library : LAME3.98

.

First Link is SAMPLE

.
Links: ScreenshotIMDBSubtitle

 

The Magnificent Seven (2016) ReadNFO TS XVID-1Click
2.04 GB
Published on: Sep 28, 2016 @ 10:30

UPLOADED | RapidGaToR | Filefactory | UploadRocket | Nitroflare | Uploading